<?xml version="1.0" standalone="no"?>
<!DOCTYPE svg PUBLIC "-//W3C//DTD SVG 1.1//EN" "http://www.w3.org/Graphics/SVG/1.1/DTD/svg11.dtd" >
<!--
2013-9-30: Created.
-->
<svg>
<metadata>
Created by iconfont
</metadata>
<defs>

<font id="iconfont" k6N7Y7 horiz-adv-x="1024" >
  <font-face
    font-family="iconfont"
    font-weight="500"
    font-stretch="normal"
    units-per-em="1024"
    ascent="896"
    descent="-128"
  />
    <missing-glyph />
    
    <glyph glyph-name="x" unicode="x" horiz-adv-x="1001"
d="M281 543q-27 -1 -53 -1h-83q-18 0 -36.5 -6t-32.5 -18.5t-23 -32t-9 -45.5v-76h912v41q0 16 -0.5 30t-0.5 18q0 13 -5 29t-17 29.5t-31.5 22.5t-49.5 9h-133v-97h-438v97zM955 310v-52q0 -23 0.5 -52t0.5 -58t-10.5 -47.5t-26 -30t-33 -16t-31.5 -4.5q-14 -1 -29.5 -0.5
t-29.5 0.5h-32l-45 128h-439l-44 -128h-29h-34q-20 0 -45 1q-25 0 -41 9.5t-25.5 23t-13.5 29.5t-4 30v167h911zM163 247q-12 0 -21 -8.5t-9 -21.5t9 -21.5t21 -8.5q13 0 22 8.5t9 21.5t-9 21.5t-22 8.5zM316 123q-8 -26 -14 -48q-5 -19 -10.5 -37t-7.5 -25t-3 -15t1 -14.5
t9.5 -10.5t21.5 -4h37h67h81h80h64h36q23 0 34 12t2 38q-5 13 -9.5 30.5t-9.5 34.5q-5 19 -11 39h-368zM336 498v228q0 11 2.5 23t10 21.5t20.5 15.5t34 6h188q31 0 51.5 -14.5t20.5 -52.5v-227h-327z" />
    

    
    <glyph glyph-name="sousuo1" unicode="&#58880;" d="M734.3013 155.9727c0 0-14.2549-18.8622-33.3428-37.3497l219.773-215.354 36.4768 34.1019L734.3013 155.9727zM812.3495 389.4274c0-213.7901-164.6831-374.2772-368.8031-374.2772C230.705 18.239 76.3684 185.8434 76.3684 389.1376c0 196.3739 166.1232 361.9626 367.1781 361.9626C647.6664 751.1002 812.3495 583.3559 812.3495 389.4274zM442.2033 702.0374c-174.9625 0-316.7702-141.9208-316.7702-318.9128 0-176.993 141.8077-319.8931 316.7702-319.8931 174.9865 0 321.0815 142.9001 321.0815 319.8931C763.2848 560.1176 617.1899 702.0374 442.2033 702.0374z"  horiz-adv-x="1000" />

    
    <glyph glyph-name="tengxunkongjian" unicode="&#230;" d="M960.397827 538.782226c0 9.92914 0 7.203052-9.929557 7.203052l-99.309895 0-168.801442 0-39.744834 70.76981L533.409488 826.632119c-9.957187 0-9.957187 0-19.886744 0L414.244572 616.755088l-39.741764-70.76981L205.667595 545.985278 63.816053 545.985278l0-4.505617 56.034506-39.740096 157.138332-139.091872-35.659624-317.92077c0-9.92914 2.039535-9.92914 21.894555-9.92914l259.22048 158.961408 258.674011-158.961408c9.957187 0 10.199721 0 20.129278 9.92914l-49.517819 317.92077 149.007823 127.822201L960.397827 538.782226zM305.008191 234.15420300000005l287.968404 234.6963-268.113384 45.951565 407.133319 0L483.738167 290.034908l258.18485-55.879682L305.008191 234.15522699999997z"  horiz-adv-x="1024" />

    
    <glyph glyph-name="video" unicode="&#58901;" d="M393.441279 737.21576c127.59605 30.905894 269.732258 10.556427 376.977817-68.236104 162.337295-110.00337 229.346455-332.312548 164.324556-515.751441-39.924291-116.734678-130.198318-214.808344-243.570411-263.612886-192.022385-86.599334-440.164928-18.818601-554.761919 159.726841C60.673359 158.120642 42.924113 300.868787 77.033979 427.554094 118.809431 577.032524 243.193323 698.204258 393.441279 737.21576zM498.089687 709.216056c-196.909695-3.667529-374.693798-166.913521-392.906601-363.211279C75.809081 130.890464 249.783415-83.767454 465.502501-102.585031c219.2454-30.136368 436.652941 151.166885 449.502597 371.481639C940.718737 501.296609 730.79668 720.691411 498.089687 709.216056zM387.315768 514.607776c117.958552-69.924559 235.935524-139.840932 351.593683-213.126029C623.997282 228.808588 505.588475 161.797381 390.991484 88.660664 382.280078 230.340477 389.303029 372.624041 387.315768 514.607776z"  horiz-adv-x="1024" />

    
    <glyph glyph-name="renren" unicode="&#58890;" d="M438.944124 748.257234l0-286.183951c0-99.228979-24.852014-189.553147-74.562183-271.160793-49.703005-81.609693-114.805746-141.887544-195.115839-180.832532C98.046037 94.655192 62.436004 192.02687 62.436004 302.198062c0 73.633021 16.506952 142.254911 49.335638 206.244294 32.82664 63.987337 77.897138 117.034507 135.397736 158.952198C304.663838 709.491325 368.653221 736.571077 438.944124 748.257234L438.944124 748.257234zM731.061205-94.343323c-67.329455-36.907585-139.6639-55.458079-217.186508-55.458079-77.159334 0-149.308561 18.550495-216.631876 55.458079 54.343699 34.31248 100.521414 75.676563 138.912793 124.45143 38.392402 48.779983 64.173578 101.456716 77.528748 158.207231 13.724583-56.56632 39.875173-109.428272 78.267575-158.207231 38.581714-48.774867 84.949764-90.324168 139.103128-124.45143L731.061205-94.343323zM969.019805 302.198062c0-110.171192-35.611056-207.54287-106.830097-292.118104-80.30907 38.951127-145.221476 99.228979-195.116863 180.832532-49.703005 81.608669-74.560136 172.122149-74.560136 271.160793L592.512708 748.257234c70.481238-11.871375 134.284379-38.760792 191.778838-80.863702 57.495482-42.10291 102.564957-95.149057 135.393643-158.952198 32.834826-63.989383 49.340755-132.611274 49.340755-206.244294L969.019805 302.197038zM969.019805 302.198062"  horiz-adv-x="1024" />

    
    <glyph glyph-name="zan" unicode="&#58893;" d="M853.333-31.010c0-50.244-40.755-90.999-91.022-90.999h-364.089c-0.114 0-0.228 0.023-0.364 0.023h-112.868c-0.182 0-0.364-0.023-0.546-0.023h-159.289v500.622h159.289c2.844 0 5.552-0.546 8.329-0.819 28.444 81.92 68.54 195.447 84.878 232.949 25.623 58.914 47.969 78.052 88.815 86.471 40.619 8.351 168.892-51.246 129.161-209.237-4.096-16.293-9.899-39.481-15.997-63.852h250.948c50.267 0 68.267-40.755 68.267-91.045l-45.511-364.089zM261.689 333.102l-91.022 0.023v-409.646l113.778 0.046v405.049l0.865 3.868c0.205 0.569-0.205-0.569 0 0-4.665 1.57-18.432 0.66-23.62 0.66zM807.822 378.613h-284.444l34.133 136.556c19.069 83.945-49.607 134.44-68.267 136.533-13.062 1.456-50.176-5.211-68.267-45.534-11.833-26.374-64.080-171.19-91.546-247.785 0.091-0.865 0.501-1.616 0.501-2.503v-432.356l432.356-0.046c25.122 0 45.511 20.389 45.511 45.534l45.511 364.089c0.023 25.145-20.366 45.511-45.488 45.511z"  horiz-adv-x="1024" />

    
    <glyph glyph-name="weixin" unicode="&#58910;" d="M684.111464 531.911111c10.47478 0 20.949559-0.722399 31.424339-1.805996-28.173545 131.476543-168.680071 229.000353-329.052557 229.000353-179.15485 0-326.162963-122.085362-326.162963-277.401058 0-89.577425 48.761905-163.262081 130.392945-220.33157l-32.507937-98.246208L272.344268 220.557319c40.81552-7.946384 73.684656-16.253968 114.138977-16.253968 10.11358 0 20.22716 0.361199 30.340741 1.444797-6.501587 21.671958-10.11358 44.788713-10.11358 68.266667C406.710406 416.327337 529.156966 531.911111 684.111464 531.911111zM508.568607 620.404938c24.561552 0 40.81552-16.253968 40.81552-40.81552 0-24.561552-16.253968-40.81552-40.81552-40.81552-24.561552 0-49.123104 16.253968-49.123104 40.81552C459.806702 604.1509699999999 484.368254 620.404938 508.568607 620.404938zM280.290653 538.7738979999999c-24.561552 0-49.123104 16.253968-49.123104 40.81552 0 24.561552 24.561552 40.81552 49.123104 40.81552 24.561552 0 40.81552-16.253968 40.81552-40.81552C321.106173 555.3890650000001 304.852205 538.7738979999999 280.290653 538.7738979999999zM981.739683 277.626808c0 130.392945-130.392945 236.585538-277.039859 236.585538-155.315697 0-277.401058-106.192593-277.401058-236.585538 0-130.754145 122.085362-236.585538 277.401058-236.585538 32.507937 0 65.377072 8.307584 97.885009 16.253968l89.577425-49.123104-24.561552 81.631041C932.977778 138.92627900000002 981.739683 204.30335100000002 981.739683 277.626808zM614.761199 318.442328c-16.253968 0-32.507937 16.253968-32.507937 32.507937 0 16.253968 16.253968 32.507937 32.507937 32.507937 24.561552 0 40.81552-16.253968 40.81552-32.507937C655.57672 334.69629599999996 639.322751 318.442328 614.761199 318.442328zM794.277249 318.442328c-16.253968 0-32.507937 16.253968-32.507937 32.507937 0 16.253968 16.253968 32.507937 32.507937 32.507937 24.561552 0 40.81552-16.253968 40.81552-32.507937C835.092769 334.69629599999996 818.477601 318.442328 794.277249 318.442328z"  horiz-adv-x="1024" />

    
    <glyph glyph-name="qian" unicode="&#58881;" d="M761.111423 637.144359l-93.468629 0-105.094129-193.64278c-28.027453-52.477735-45.170139-87.360315-51.429275-104.647743l-1.789193 0c-18.489142 42.038138-70.660367 141.465474-156.52462 298.290523L253.971802 637.144359l183.804041-315.732421L287.065189 321.411937l0-69.763945 176.648484 0 0-96.151811L287.065189 155.496181l0-70.65915 176.648484 0 0-139.977926 87.65223 0L551.365903 84.837031l170.388131 0L721.754034 155.496181 551.367119 155.496181l0 96.151811 170.388131 0 0 69.763945-146.237062 0L761.111423 637.144359z"  horiz-adv-x="1024" />

    
    <glyph glyph-name="pinglun" unicode="&#58882;" d="M805.5405 103.452555c0.056282-0.079818 0.127913-0.191358 0.127913-0.191358S650.232295-17.166593 511.947811-121.790442c-48.978505-37.08257-111.873973-30.785144-111.873973 13.995759L400.073838 47.528871c-185.380104 0-335.674109 156.50138-335.674109 349.557304 0 193.047738 150.292981 349.564467 335.674109 349.564467l223.792972 0c185.389314 0 335.675132-156.51673 335.675132-349.564467C959.542966 273.806431 898.090359 165.666502 805.5405 103.452555M609.865935 690.567323 414.069597 690.567323c-162.220638 0-293.713438-131.475404-293.713438-293.672506 0-162.198126 131.491777-293.672506 293.713438-293.672506l41.961694 0 0-142.242631c0-31.090089 27.957749-25.556049 27.957749-25.556049l279.717679 209.798237-3.044336 0c85.557608 51.261501 142.92313 144.685263 142.92313 251.671926 0.001023 162.197102-131.481544 293.672506-293.718555 293.672506L609.865935 690.5663z"  horiz-adv-x="1024" />

    
    <glyph glyph-name="sanheng" unicode="&#58885;" d="M942.004009 270.919684 82.058412 270.919684c-15.809057 0-28.719088 13.003152-28.719088 29.063943 0 16.061814 12.911054 29.097712 28.719088 29.097712l859.945597 0c15.809057 0 28.656667-13.034874 28.656667-29.097712C970.660676 283.922836 957.81409 270.919684 942.004009 270.919684L942.004009 270.919684zM942.004009 270.919684 82.058412 270.919684c-15.809057 0-28.719088 13.003152-28.719088 29.063943 0 16.061814 12.911054 29.097712 28.719088 29.097712l859.945597 0c15.809057 0 28.656667-13.034874 28.656667-29.097712C970.660676 283.922836 957.81409 270.919684 942.004009 270.919684L942.004009 270.919684zM942.004009-51.568101 82.058412-51.568101c-15.809057 0-28.719088 13.005198-28.719088 29.065989 0 16.061814 12.911054 29.098735 28.719088 29.098735l859.945597 0c15.809057 0 28.656667-13.035898 28.656667-29.098735C970.660676-38.562902 957.81409-51.568101 942.004009-51.568101L942.004009-51.568101zM942.004009-51.568101 82.058412-51.568101c-15.809057 0-28.719088 13.005198-28.719088 29.065989 0 16.061814 12.911054 29.098735 28.719088 29.098735l859.945597 0c15.809057 0 28.656667-13.035898 28.656667-29.098735C970.660676-38.562902 957.81409-51.568101 942.004009-51.568101L942.004009-51.568101zM942.004009 593.405423 82.058412 593.405423c-15.809057 0-28.719088 13.004175-28.719088 29.064966 0 16.061814 12.911054 29.098735 28.719088 29.098735l859.945597 0c15.809057 0 28.656667-13.035898 28.656667-29.098735C970.660676 606.409598 957.81409 593.405423 942.004009 593.405423L942.004009 593.405423zM942.004009 593.405423 82.058412 593.405423c-15.809057 0-28.719088 13.004175-28.719088 29.064966 0 16.061814 12.911054 29.098735 28.719088 29.098735l859.945597 0c15.809057 0 28.656667-13.035898 28.656667-29.098735C970.660676 606.409598 957.81409 593.405423 942.004009 593.405423L942.004009 593.405423z"  horiz-adv-x="1024" />

    
    <glyph glyph-name="guanbi" unicode="&#58886;" d="M555.008 384l299.008 299.008c12.288 12.288 12.288 31.744 0 43.008-12.288 12.288-31.744 12.288-43.008 0L512 427.008 212.992 726.016c-12.288 12.288-31.744 12.288-43.008 0-12.288-12.288-12.288-31.744 0-43.008L468.992 384 169.984 84.992c-12.288-12.288-12.288-31.744 0-43.008 6.144-6.144 14.336-9.216 21.504-9.216s15.36 3.072 21.504 9.216L512 340.992l299.008-299.008c6.144-6.144 14.336-9.216 21.504-9.216s15.36 3.072 21.504 9.216c12.288 12.288 12.288 31.744 0 43.008L555.008 384z"  horiz-adv-x="1024" />

    
    <glyph glyph-name="iconfonttencentweibo" unicode="&#58892;" d="M601.1460256767273 484.31723119099945q0-35.308153495788574-25.13940507888794-60.22158688545226t-59.99561442375183-24.913433389663698q-26.49523830413819 0-48.97947043418884 15.422601585388184-27.342633876800534-29.54586267471314-50.73075508117676-64.45856474876403-109.03157835960388-163.71684611320498-89.1460256767273-379.1248291110993 0.4519441509246827-9.716803493499754-5.536318359375-17.004406499862668t-15.253122625350953-8.191491308212282l-2.203228797912597 0q-8.812915191650388 0-15.422601585388184 5.93176978111267t-7.513574695587159 14.801177701950076q-6.157742242813111 55.58915682792662-1.5253121852874754 109.25755004882814t12.993400325775147 95.75571207046508 23.840065355300904 82.08439513206483 30.449751749038697 68.639050655365 32.6529805469513 55.19370540618895q26.947182455062862 39.71461109161377 58.24432977676392 72.81953578948975-7.061630544662475 15.422601585388184-7.061630544662475 34.00881377220154 0 35.308153495788574 24.913433389663698 60.22158688545226t60.22158688545226 24.913433389663698 60.22158688545226-24.913433389663698 24.913433389663698-60.22158688545226zM769.3258228874206 479.45882944424955q0-69.7124186897278-34.404264421463004-128.86063676834107t-93.77845573425293-93.5524832725525-129.08660923004152-34.404264421463004q-28.246522951126096 0-57.79238562583923 6.157742242813111-9.264859342575074 2.203228797912597-14.34923355102539 10.394720106124877t-2.88114541053772 17.456351423263552q2.203228797912597 8.812915191650388 10.168748416900632 13.89728940010071t17.23037896156311 3.333089561462402q22.48423213005066-5.76229082107544 47.68013071060181-5.76229082107544 42.82172896385193 0 82.08439513206483 16.778434810638426t67.50918989181518 45.024956989288334 45.024956989288334 67.50918989181518 16.778434810638426 82.08439513206483-16.778434810638426 82.08439513206483-45.024956989288334 67.50918989181518-67.50918989181518 45.024956989288334-82.08439513206483 16.778434810638426-82.08439513206483-16.778434810638426-67.50918989181518-45.024956989288334-45.024956989288334-67.50918989181518-16.778434810638426-82.08439513206483q0-50.335303659439084 22.936176280975342-96.20765699386595 4.406457595825194-8.812915191650388 1.5253121852874754-17.625830383300777t-11.242116451263426-13.219372787475589-17.456351423263552-1.2993397235870363-13.44534447669983 11.468088140487671q-28.246522951126096 54.2898171043396-28.246522951126096 116.94060447692871 0 52.538532457351685 20.506975793838503 100.16216966629028t54.96773371696472 82.08439513206483 82.08439513206483 54.74176125526429 99.7667182445526 20.281003332138063q69.7124186897278 0 129.08660923004152-34.404264421463004t93.77845573425293-93.77845573425293 34.404264421463004-129.08660923004152z"  horiz-adv-x="1024" />

    
    <glyph glyph-name="xinlangweibo" unicode="&#58888;" d="M908.8033176757813 516.2202550781251c-10.441021289062501 0-18.84492333984375 8.488444921875-18.84492333984375 18.9294662109375 0 93.73354892578125-76.2934728515625 169.94247890625-170.02702177734375 169.94247890625-10.441021289062501 0-18.84492333984375 8.488444921875-18.84492333984375 18.9294662109375 0 10.427530078124999 8.403902050781252 18.84492333984375 18.84492333984375 18.84492333984375 114.5877099609375 0 207.80141044921876-93.14354882812499 207.80141044921876-207.716867578125C927.7327830078125 524.7077999999999 919.2452380859376 516.2202550781251 908.8033176757813 516.2202550781251L908.8033176757813 516.2202550781251zM776.6352274414063 516.2202550781251c-10.441021289062501 0-18.9294662109375 8.488444921875-18.9294662109375 18.9294662109375 0 20.84066982421875-16.933718847656248 37.774388671875-37.774388671875 37.774388671875-10.441021289062501 0-18.84492333984375 8.403902050781252-18.84492333984375 18.84492333984375s8.403902050781252 18.9294662109375 18.84492333984375 18.9294662109375c41.6813396484375 0 75.54877822265625-33.909709570312494 75.54877822265625-75.54877822265625C795.4801507812499 524.7077999999999 787.0762487304687 516.2202550781251 776.6352274414063 516.2202550781251L776.6352274414063 516.2202550781251zM776.7476509765625 259.5423820312501c0-110.89211484375001-144.75955341796873-234.43145507812503-352.5186919921875-234.43145507812503-161.20130537109375 0-327.94015693359376 82.71601874999999-327.94015693359376 221.08180693359375 0 69.46350380859376 40.86649248046875 149.94543691406253 115.13633730468749 226.57618125 71.19213134765626 73.44060732421875 152.2784548828125 119.11344082031252 211.62381943359375 119.11344082031252 23.6935353515625 0 43.4522390625-7.532392675781249 57.25158310546875-21.76794140625 13.8002431640625-14.2778197265625 27.0797396484375-40.79544082031249 17.56598994140625-87.901003125 35.25879462890625 13.785852832031251 68.35365615234375 21.0655177734375 96.45960058593751 21.0655177734375 45.334662890625005 0 67.51092744140624-18.60658505859375 78.02210126953125-34.16243818359374 15.27524296875-22.4703650390625 16.4561431640625-52.164632812499995 3.5831707031249995-88.28054560546875C739.1558383789063 359.95120546875 776.7476509765625 314.7703379882812 776.7476509765625 259.5423820312501L776.7476509765625 259.5423820312501zM662.7922129882813 345.37838525390623c-7.9263263671875 2.4454423828125-18.91507587890625 5.87391767578125-24.34019765625 17.20083779296875-5.536646191406249 11.467225195312501-1.0396951171875 23.2015693359375 0.4353046875 27.108520312499998 6.942393457031251 17.860990429687497 12.8729724609375 42.53845869140625 2.22059443359375 58.20763535156251-9.85102119140625 14.572819335937501-30.87426708984375 17.60826181640625-46.782681152343756 17.60826181640625-26.4474685546875 0-59.09263505859374-8.052240234374999-94.43597255859375-23.35626474609375-0.140305078125-0.04227099609375-0.29499960937499997-0.0701525390625-0.4074240234375-0.18257607421875-4.7496796875000005-1.95347548828125-11.83237734375-4.2442224609375-18.8871943359375-4.2442224609375-11.804496679687501 0-18.114618164062502 6.1554269531250005-20.8685513671875 9.87890185546875-3.5130181640625002 4.806341015625001-6.90012158203125 13.28039560546875-2.8807470703124998 26.12458740234375 9.65405478515625 32.1253189453125 8.33374951171875 57.687787792968756-3.69559423828125 70.12455556640626-6.605121972656249 6.82996904296875-16.70887177734375 10.2584443359375-30.101690917968746 10.2584443359375-47.99056201171875 0-122.09222109374998-43.240882324218745-184.47302724609375-107.60394462890626C171.17742763671873 376.9694663085937 134.06319072265626 305.80521562499996 134.06319072265626 246.19183388671877c0-90.12159755859376 108.5312162109375-183.3074173828125 290.16576738281253-183.3074173828125 194.95721865234376 0 314.7443033203125 114.5040662109375 314.7443033203125 196.65706640625C738.9732623046875 315.02396572265627 685.6987818359376 338.084330859375 662.7922129882813 345.37838525390623L662.7922129882813 345.37838525390623z"  horiz-adv-x="1024" />

    
    <glyph glyph-name="douban1" unicode="&#58891;" d="M408.6865961914063 46.89325869140623c-3.1055941406249996-1.95347548828125-6.590731640625-2.867255859375-10.0201060546875-2.867255859375-6.267850488281249 0-12.408887109375 3.09210380859375-16.020837597656246 8.88147861328125l-94.4215822265625 151.09755556640624c-5.536646191406249 8.825716406249999-2.8384751953125 20.517788671875 5.9863412109375 26.0121638671875 8.83920673828125 5.5654268554687505 20.517788671875 2.8807470703124998 26.0121638671875-6.015121875l94.4782435546875-151.09755556640624C420.22397392578125 64.09409648437509 417.539294140625 52.3876330078125 408.6865961914063 46.89325869140623L408.6865961914063 46.89325869140623zM851.9591577148437 44.026001953125046l-679.9390013671875 0c-10.441021289062501 0-18.872804003906253 8.47405458984375-18.872804003906253 18.84492333984375 0 10.441021289062501 8.431783593750001 18.9294662109375 18.872804003906253 18.9294662109375l679.9390013671875 0c10.441021289062501 0 18.90158466796875-8.488444921875 18.90158466796875-18.9294662109375C870.8607423828125 52.500056542968764 862.4001790039063 44.026001953125046 851.9591577148437 44.026001953125046L851.9591577148437 44.026001953125046zM735.7408534179688 204.00503701171874l-94.39370068359375-151.09755556640624c-3.5831707031249995-5.790273925781251-9.7664783203125-8.88147861328125-16.034328808593752-8.88147861328125-3.42937529296875 0-6.9145119140625 0.91378037109375-10.033597265625 2.867255859375-8.83920673828125 5.4943751953125-11.49510673828125 17.20083779296875-5.9863412109375 26.0121638671875l94.450362890625 151.09755556640624c5.5510365234375 8.8958689453125 17.172957128906248 11.57964873046875 25.99777353515625 6.015121875C738.5802286132813 224.52282568359374 741.2918899414062 212.8307525390626 735.7408534179688 204.00503701171874L735.7408534179688 204.00503701171874zM719.7631868164062 270.67233574218756l-415.51827890625 0c-41.653458984375 0-75.57665888671875 33.85394736328124-75.57665888671875 75.54877822265625l0 151.09755556640624c0 41.6813396484375 33.924099023437506 75.54877822265625 75.57665888671875 75.54877822265625l415.51827890625 0c41.6669501953125 0 75.54877822265625-33.867437695312496 75.54877822265625-75.54877822265625l0-151.09755556640624C795.3119641601563 304.5262831054687 761.4301361328124 270.67233574218756 719.7631868164062 270.67233574218756L719.7631868164062 270.67233574218756zM757.5375754882813 497.31866953125c0 20.84066982421875-16.975989843749996 37.774388671875-37.774388671875 37.774388671875l-415.51827890625 0c-20.84066982421875 0-37.774388671875-16.933718847656248-37.774388671875-37.774388671875l0-151.09755556640624c0-20.855060156249998 16.933718847656248-37.774388671875 37.774388671875-37.774388671875l415.51827890625 0c20.798398828125 0 37.774388671875 16.920228515625002 37.774388671875 37.774388671875L757.5375754882813 497.31866953125 757.5375754882813 497.31866953125zM814.1847690429688 686.1906146484375l-604.3902231445312 0c-10.441021289062501 0-18.872804003906253 8.403902050781252-18.872804003906253 18.84492333984375s8.431783593750001 18.9294662109375 18.872804003906253 18.9294662109375l604.3902231445312 0c10.441021289062501 0 18.90158466796875-8.488444921875 18.90158466796875-18.9294662109375S824.625789453125 686.1906146484375 814.1847690429688 686.1906146484375L814.1847690429688 686.1906146484375z"  horiz-adv-x="1024" />

    
    <glyph glyph-name="jiantou-copy" unicode="&#58896;" d="M629.944 866.53c5.795 0 11.674-1.761 16.753-5.366 13.025-9.277 16.056-27.341 6.779-40.367l-297.206-417.382 297.226-417.403c9.277-13.025 6.246-31.089-6.779-40.367-13.066-9.236-31.089-6.226-40.367 6.779l-309.166 434.176c-7.148 10.056-7.148 23.511 0 33.588l309.166 434.176c5.652 7.926 14.561 12.165 23.593 12.165z"  horiz-adv-x="1024" />

    
    <glyph glyph-name="iconfontweixin" unicode="&#58894;" d="M696.6779938793184 351.979589395523m-34.613910598754885 0a23.349637985229496 23.349637985229496 0 1 1 69.22782196998595 0 23.349637985229496 23.349637985229496 0 1 1-69.22782196998595 0ZM882.6096725940705 350.53443243026743m-34.613910598754885 0a23.349637985229496 23.349637985229496 0 1 1 69.22782196998595 0 23.349637985229496 23.349637985229496 0 1 1-69.22782196998595 0ZM359.0300412559509 582.7466285419464m-42.38134260177612 0a28.589344024658203 28.589344024658203 0 1 1 84.76268520355224 0 28.589344024658203 28.589344024658203 0 1 1-84.76268520355224 0ZM586.6834660053254 580.9773992729188m-42.38134260177612 0a28.589344024658203 28.589344024658203 0 1 1 84.76268520355224 0 28.589344024658203 28.589344024658203 0 1 1-84.76268520355224 0ZM1063.8348585510255 374.2535558223725c-14.955426521301273 30.591061592102047-36.41520380973816 58.06163761138916-63.78157279014588 81.64907080650329-49.24297442436219 42.43974411964417-112.92263056755066 68.23041152000428-181.54811267852781 73.97782985687256-4.5484649848938 23.383599128723144-12.31704179763794 46.17631035804748-23.303440046310424 68.14567165374756-17.859482030868534 35.71323769569396-43.34325390815735 67.71510191917419-75.74247834205627 95.11811562538146C653.6130075263976 748.8354570579529 566.3069838428497 779.5078225421905 473.62456445693965 779.5078225421905S293.63612215995784 748.8354570579529 227.78873018264767 693.1430981826782c-32.39922520637512-27.403013706207272-57.88299708366394-59.40487792968749-75.74247834205627-95.11811562538146C133.3931934261322 560.7245913219451 123.93554642677316 521.0640829181672 123.93554642677316 480.1450748348236c0-40.9201536655426 9.45764699935913-80.58066206932068 28.111850223541257-117.88105330467225 13.746166791915892-27.487752799987792 32.01789619445801-52.77112658500672 54.475083932876586-75.45734038352967 0 0-0.003435201644897461-0.0068711757659912125-0.003435201644897461-0.0068711757659912125s21.42885892868042-22.06326195716858 26.024274244308472-26.2910898399353l-22.640408277511597-87.59345203399657c-2.4940977573394782-9.682093048095703 0.6985309123992921-19.942477226257324 8.244952068328857-26.500649499893186 4.835893335342407-4.202635116577149 10.92456075668335-6.420756483078003 17.108275194168094-6.468851623535156 3.4663154411315915-0.027483158111572262 6.963549242019654 0.6286774349212647 10.283287324905396 2.001691303253174l123.10972683906553 51.2000057888031c12.733869953155516-2.0154328823089602 12.733869953155516-2.0154328823089602 22.582006759643555-4.046896963119507 0 0.00229039192199707 0 0.003435201644897461 0 0.00458078384399414 26.67241885185242-5.486328334808349 54.28270105361938-8.323965568542478 82.39340646743776-8.323965568542478 13.35682179450989 0 26.59684055328369 0.6607413768768311 39.68112038612366 1.9226770305633543 0.8462523078918457-1.84938835144043 1.7108277511596683-3.6941966915130613 2.6086111736297606-5.529843463897706 14.955426521301273-30.591061592102047 36.41520380973816-58.06049280166626 63.78157279014588-81.6479252243042 55.562959070205686-47.88713810920716 129.5018545818329-74.597346496582 208.19419395446778-75.20884715080261 31.536940927505494-0.2450580310821533 62.36618937492369 3.7342758464813226 91.62202663421631 11.597898902893066l96.39264727592467-41.62441017150879c2.7437365722656244-1.1863565826416016 5.6443568801879875-1.776099672317505 8.528944444656373-1.7978572368621824 5.145079250335694-0.040079927444458006 10.23977219581604 1.7280045318603516 14.316442708969118 5.159965639114381 6.363499774932861 5.35807333946228 9.151896286010743 13.852664222717287 7.2028816795349115 21.939587745666504l-16.910166721343998 70.14049178123473c2.8857331466674805 2.2249917697906496 5.636340894699096 4.422500381469726 8.184260158538816 6.550156288146973 27.730521211624144 23.15800827026367 49.61399705886841 50.29191598892211 65.0435084438324 80.64593476295471 16.124606323242187 31.725887060165398 24.43941109657288 65.5313348865509 24.7119530582428 100.47618896484374C1087.2539568233487 308.3511975288392 1079.464767255783 342.2803195667267 1063.8348585510255 374.2535558223725zM473.62456445693965 227.47623670578014c-29.136743831634522 0-57.31615636825562 3.4651698589324957-83.99888159751892 9.898522338867188-0.0011448097229003907-0.03549914360046387-0.00229039192199707-0.07099828720092774-0.00458078384399414-0.10535184860229492-4.630914459228515 1.1978085422515867-9.281296091079714 2.5021137428283695-13.984354419708254 3.9541411113739016-6.9303397178649915 4.186603145599365-15.68831099510193 5.142788858413696-23.743170576095583 1.8115988159179686l-77.706380109787-32.13240961074829 4.084686498641967 15.858935537338256c1.5860079574584962 5.038581819534301 6.104699392318726 18.78703900337219 8.573604383468627 30.47311297416687 0.5370671653747559 2.5456288719177245 0.8897674369812011 5.169126434326172 1.0042808532714842 7.793769578933715 0.5588247299194335 5.042017021179199-0.36415223121643064 9.993568582534788-2.4711953830718993 14.353086662292478-0.10649743080139158 0.23360684394836426-0.23017164230346682 0.46034328460693363-0.34468505859375 0.6916597366333007-0.026338348388671873 0.050385532379150395-0.04924072265624999 0.10191664695739745-0.07672388076782226 0.15230295181274414-0.6447094058990479 1.2802580165863038-1.3924810409545896 2.520436105728149-2.2868292617797854 3.6964870834350583-6.570768270492555 8.645748252868653-17.102549600601193 13.107182979583738-25.206649904251098 20.01576590538025-9.891651935577393 8.431608581542969-17.786193351745602 16.062769603729247-27.65036212921143 26.38384569168091-37.16984584808349 41.949627285003665-59.18157669067382 93.77945609092713-59.18157669067382 149.82337042808533C170.62945677757267 619.466437482834 306.55321342468267 732.812767381668 473.62456445693965 732.812767381668c146.34560379981994 0 268.78084768295287-86.97050019264222 296.90872987747196-202.18568484306334-70.72336446762085-3.731985454559326-136.824975271225-28.732511672973633-188.01123870849608-71.4802968978882-27.730521211624144-23.15800827026367-49.61399705886841-50.293060798645016-65.0435084438324-80.6470795726776-16.124606323242187-31.727032642364502-24.43941109657288-65.53247969627381-24.7119530582428-100.47733377456665-0.13054538726806642-16.847185192108153 1.6306678962707517-33.455037174224856 5.221803131103516-49.72393046379088C489.95071445465095 227.7590842723847 481.8271462059021 227.47623670578014 473.62456445693965 227.47623670578014zM968.0811943149567 125.20791609764103c-6.830713462829589-5.642066488265991-15.650521459579469-9.218313789367675-21.228460836410523-16.325004415512083-0.756932430267334-0.9664913177490234-1.3959162425994873-1.9856593322753904-1.9478697967529297-3.041471300125122-0.03664395332336426-0.06756308555603027-0.06985270500183105-0.13627098083496092-0.10535184860229492-0.2038332939147949-0.0835942840576172-0.1648989486694336-0.17635013580322265-0.32750750541687007-0.2565099906921387-0.49469684600830066-1.8115988159179686-3.6002952575683596-2.6452551269531246-7.711320104598999-2.24331413269043-11.915100803375246 0.06069190979003907-2.183767032623291 0.32063710212707514-4.369824457168579 0.7351748657226562-6.492899580001833 1.9020642757415775-9.750800943374635 5.480602741241455-21.242202415466306 6.736812801361085-25.457433528900147l3.194919061660767-13.249179553985597-64.2293193054199 27.735101995468142c-6.660088920593263 2.8777171611785892-13.959161653518676 2.1940734100341794-19.781013479232787-1.2012437438964845-26.38384569168091-7.698724107742309-50.774016065597536-10.566134891510009-80.72265864372253-10.333672857284547-139.61451736450198 1.0855855178833007-252.46156886100775 96.84039456367492-251.55462464332584 213.45378584861754 0.9057994079589843 116.61339205741882 115.22778219223024 210.60355184555056 254.84229878425592 209.51911190986633 139.61451736450198-1.0855855178833007 252.4604240512848-96.84039456367492 251.5534790611267-213.45378584861754C1042.6224296855926 215.61724780082693 1013.9826730918885 163.117516822815 968.0811943149567 125.20791609764103z"  horiz-adv-x="1257" />

    
    <glyph glyph-name="wangwang" unicode="&#59228;" d="M527.911305 368.088695c-26.490173 0-47.991937 21.501764-47.991937 47.991937l0 63.989249c0 26.490173 21.501764 47.991937 47.991937 47.991937 26.490173 0 47.991937-21.501764 47.991937-47.991937L575.903242 416.080632C575.903242 389.418444 554.401478 368.088695 527.911305 368.088695zM719.018982 368.088695c-26.490173 0-47.991937 21.501764-47.991937 47.991937l0 63.989249c0 26.490173 21.501764 47.991937 47.991937 47.991937s47.991937-21.501764 47.991937-47.991937L767.010919 416.080632C767.010919 389.418444 745.509155 368.088695 719.018982 368.088695zM511.913993 828.398455c-81.19066 0-159.45708-21.673778-228.434739-62.78515-38.531161 42.315471-94.435747 66.225433-158.252982 66.225433-11.69696 0-22.361834-6.364522-28.0383-16.513355-5.676466-10.148833-5.332437-22.705863 0.860071-32.510667 0.344028-0.516042 33.542752-54.356459 41.971443-136.751218 1.720141-16.513355 15.653284-28.726356 31.82261-28.726356 1.032085 0 2.064169 0 3.268268 0.172014 17.545439 1.720141 30.446498 17.545439 28.554342 35.090879-4.300353 43.003528-14.449185 79.298505-24.426004 106.820763 24.426004-8.256677 50.916177-23.909961 70.181757-53.324374 0.172014-0.172014 0.172014-0.172014 0.344028-0.344028 0.172014-0.172014 0.172014-0.172014 0.172014-0.344028 1.204099-1.720141 2.752226-2.580212 4.128339-3.956325 1.548127-1.548127 2.92424-3.268268 4.644381-4.472367 1.892155-1.204099 3.956325-1.720141 5.84848-2.580212 1.892155-0.688056 3.440282-1.720141 5.332437-2.064169 2.064169-0.344028 4.128339-0.172014 6.192508-0.172014 2.064169 0 3.956325-0.344028 6.020494 0 2.064169 0.344028 3.78431 1.376113 5.676466 2.236183 1.892155 0.688056 3.956325 1.204099 5.84848 2.236183 0.172014 0.172014 0.172014 0.172014 0.344028 0.344028 0.172014 0 0.344028 0.172014 0.344028 0.172014 64.161263 44.207626 139.33143 67.601545 217.425836 67.601545 211.577356 0 383.763481-172.186125 383.763481-383.763481S723.491349-2.945742 511.913993-2.945742 128.322526 169.240383 128.322526 380.817739c0 54.184445 11.008903 106.476734 32.854695 155.67277 7.224593 16.169326-0.172014 35.090879-16.169326 42.315471-16.169326 7.224593-35.090879-0.172014-42.315471-16.169326-25.458088-57.280699-38.359147-118.345708-38.359147-181.646901 0-246.840249 200.912481-447.75273 447.75273-447.75273S959.666723 133.97749 959.666723 380.817739 758.926256 828.398455 511.913993 828.398455z"  horiz-adv-x="1024" />

    
    <glyph glyph-name="icon1460281299377" unicode="&#58884;" d="M965.793 122.452c0-7.19-2.74-14.38-8.22-19.86-10.965-10.96-28.74-10.96-39.7 0l-401.814 401.819-401.729-401.809c-10.96-10.97-28.74-10.97-39.7-0.010-10.965 10.96-10.965 28.74-0.005 39.7l421.579 421.674c5.265 5.265 12.405 8.22 19.855 8.22 7.44 0 14.58-2.955 19.85-8.22l421.664-421.664c5.48-5.49 8.22-12.67 8.22-19.86v0 0.010z"  horiz-adv-x="1024" />

    
    <glyph glyph-name="qqkongjian" unicode="&#58887;" d="M656.548652 428.62536c-151.977343 33.011858-304.985156 12.455683-304.985156 12.455683 128.45665-11.553127 193.024202-36.154431 193.024202-36.154431L360.872512 264.47885900000006c169.413458-35.894512 308.913629 6.703679 308.913629 6.703679C487.283574 287.119509 464.465892 301.077406 464.465892 301.077406L656.548652 428.62536 656.548652 428.62536zM947.061189 482.963942c-1.690502 5.179976-6.310729 8.859785-11.736299 9.315156l-295.426453 25.365714L524.475638 790.780587c-2.112104 5.0142-7.037277 8.283664-12.478196 8.283664-5.440919 0-10.361999-3.269463-12.473079-8.283664L384.10054 517.644813 88.673064 492.279099c-5.429663-0.455371-10.045797-4.13518-11.735275-9.315156-1.685385-5.179976-0.105401-10.865465 4.01136-14.439874L305.047066 274.36911399999997 237.875201-14.46929399999999c-1.235131-5.285377 0.819668-10.816347 5.223978-14.039761 4.422729-3.158946 10.30674-3.40761 14.983249-0.60989l253.91399 153.125493 253.908874-153.125493c2.177596-1.340531 4.592598-1.944282 7.008624-1.944282 2.809999 0 5.607718 0.848321 7.978718 2.549056 4.411473 3.225461 6.461155 8.754385 5.231141 14.041808L718.950887 274.36911399999997l224.093824 194.154955C947.166589 472.098477 948.745551 477.777827 947.061189 482.963942L947.061189 482.963942zM865.615225 447.330374L681.932786 288.18374700000004l55.053873-236.749052c1.014096-4.337795-0.671289-8.871041-4.282536-11.508102-1.940189-1.39579-4.234441-2.093684-6.538927-2.093684-1.983167 0-3.962242 0.49835-5.745864 1.595334L512.301364 164.941865 304.177256 39.42824399999995c-3.834328-2.295276-8.661264-2.089591-12.283768 0.49835-3.613294 2.642177-5.29254 7.176446-4.28356 11.508102l55.061037 236.749052-183.683463 159.146627c-3.372817 2.926656-4.669346 7.585769-3.290953 11.830443 1.385557 4.249791 5.170766 7.264451 9.619078 7.635911l242.151086 20.794605 94.606705 223.876883c1.733481 4.110621 5.767354 6.792707 10.228969 6.792707 4.459568 0 8.493441-2.682086 10.228969-6.792707l94.605681-223.876883 242.151086-20.794605c4.450359-0.37146 8.232498-3.38612 9.619078-7.635911C870.286618 454.911026 868.989065 450.25703 865.615225 447.330374L865.615225 447.330374zM865.615225 447.330374"  horiz-adv-x="1024" />

    
    <glyph glyph-name="jiantou-copy-copy" unicode="&#58883;" d="M394.056-77.198c-5.795 0-11.674 1.761-16.753 5.366-13.025 9.277-16.056 27.341-6.779 40.367l297.206 417.382-297.226 417.403c-9.277 13.025-6.246 31.089 6.779 40.367 13.066 9.236 31.089 6.226 40.367-6.779l309.166-434.176c7.148-10.056 7.148-23.511 0-33.588l-309.166-434.176c-5.652-7.926-14.561-12.165-23.593-12.165z"  horiz-adv-x="1024" />

    
    <glyph glyph-name="liebiao2" unicode="&#58972;" d="M862.847693 325.525214 161.152307 325.525214c-32.292474 0-58.474786 26.182312-58.474786 58.474786s26.182312 58.474786 58.474786 58.474786l701.695387 0c32.292474 0 58.474786-26.182312 58.474786-58.474786S895.140167 325.525214 862.847693 325.525214zM862.847693 33.152307 161.152307 33.152307c-32.292474 0-58.474786 26.182312-58.474786 58.474786 0 32.292474 26.182312 58.474786 58.474786 58.474786l701.695387 0c32.292474 0 58.474786-26.182312 58.474786-58.474786C921.322479 59.334619 895.140167 33.152307 862.847693 33.152307zM862.847693 617.899144 161.152307 617.899144c-32.292474 0-58.474786 26.182312-58.474786 58.474786s26.182312 58.474786 58.474786 58.474786l701.695387 0c32.292474 0 58.474786-26.182312 58.474786-58.474786S895.140167 617.899144 862.847693 617.899144z"  horiz-adv-x="1024" />

    
    <glyph glyph-name="qq1" unicode="&#58889;" d="M531.6674152343751 777.6460078125c265.72933564453126 0 278.79837451171875-253.75935146484375 278.79837451171875-253.75935146484375 40.30887041015625-53.377010156249995 18.531036035156248-101.29022490234375 18.531036035156248-101.29022490234375 129.60033134765627-203.67410888671876 45.747483398437495-262.515814453125 22.8750908203125-266.85447275390624-22.8750908203125-4.339557421875-44.67451025390625 25.065105468749998-44.67451025390625 25.065105468749998s-7.602545214843751-29.38127958984375-26.138977734375-44.6691146484375c67.54780283203124-31.550608300781256 55.548137988281255-70.783808203125 55.548137988281255-70.783808203125s-14.16539619140625-118.44609345703124-295.13489853515625-43.572757324218756l-23.9687490234375 4.3629416015625c-269.3026125-97.20249697265625-302.7698217773438 33.77030361328126-302.7698217773438 33.77030361328126s-10.89971015625 54.427498242187504 41.377346191406254 75.15124716796875c-30.504617578124996 18.531036035156248-41.377346191406254 57.717467578124996-41.377346191406254 57.717467578124996s-27.23983154296875-44.64573046875-63.17676650390625-28.311904687500004c-35.94323056640625 16.336524023437498-57.716568457031244 161.17432382812498 77.3205767578125 265.7284365234375 0 0-19.582423242187502 62.083107421875 25.06420634765625 99.12179531250001C253.94111386718754 529.3216719726563 265.93718046874994 777.6460078125 531.6674152343751 777.6460078125M295.31846005859376 515.15627578125c-58.81292490234375-50.08614169921875-19.6031091796875-100.21725263671874-19.6031091796875-100.21725263671874C146.11591953124997 335.42483437500005 168.98921123046875 206.92445683593746 168.98921123046875 206.92445683593746s20.674283203125 10.361874902343748 35.37751376953125 40.30437392578125c14.7050296875 29.945197265624998 37.577422265624996-4.899877734375 37.577422265624996-4.899877734375s14.16539619140625-68.616277734375 57.535790625-95.4945544921875c43.37309267578126-26.87917587890625-1.9112044921875002-44.02964794921875-1.9112044921875002-44.02964794921875s-47.740531640625-0.6934297851562501-43.62851953125001-33.1110509765625c4.1075147460937504-32.4185203125 158.09031474609375-73.00710087890624 250.49186630859373-1.0963564453125l49.005973828125-6.53676767578125c161.204902734375-56.05989169921875 240.6939099609375-3.7783379882812502 246.00211083984374 6.2507619140625 5.31 10.02999990234375-24.350090625 29.71495283203125-51.613306347656255 41.12281845703125-27.265913964843747 11.41416123046875-34.280258203124994 23.438109375-10.162210253906249 39.49492236328125 24.1216453125 16.0514173828125 33.646187988281255 47.912315625000005 47.762117578125 80.89115537109375 14.110533105468749 32.981538867187496 35.3766146484375 16.87256015625 38.11166015625 7.602545214843751 2.7296490234375-9.264618457031249 22.869694335937503-40.276492382812506 22.869694335937503-40.276492382812506s52.50909902343749 55.646172070312495-56.642696191406245 219.9881478515625c0 0 23.68813974609375 49.2416138671875-16.34012138671875 89.29056093749999 0 0-9.7772712890625 230.91034306640626-246.14871152343756 230.91034306640626C290.90425273437506 737.33623828125 295.31846005859376 515.15627578125 295.31846005859376 515.15627578125"  horiz-adv-x="1024" />

    
    <glyph glyph-name="shouji" unicode="&#59014;" d="M715.525881 829.138196 308.474119 829.138196c-40.377616 0-73.17151-32.79287-73.17151-73.116251l0-743.988632c0-40.322357 32.793894-73.170486 73.17151-73.170486l407.052786 0c40.376593 0 73.170486 32.848129 73.170486 73.170486L788.697391 756.021945C788.696368 796.345326 755.902474 829.138196 715.525881 829.138196zM308.474119 778.611429l407.052786 0c12.495592 0 22.644743-10.149151 22.644743-22.589484l0-601.793072L285.829376 154.228873 285.829376 756.021945C285.829376 768.462279 295.978527 778.611429 308.474119 778.611429zM444.175777 56.448896c0 38.631856 31.266098 69.842695 69.842695 69.842695 38.576597 0 69.842695-31.210839 69.842695-69.842695 0-33.666774-24.335245-60.45693-56.092529-67.060325l-27.500331 0C468.512045-4.008035 444.175777 22.782122 444.175777 56.448896z"  horiz-adv-x="1024" />

    
    <glyph glyph-name="line" unicode="&#59037;" d="M715.668 527.184v-48.265h83.658c6.434 0 11.263-1.609 14.478-4.827s4.827-6.434 4.827-11.263c0-4.827-1.609-8.043-4.827-11.263-3.219-3.219-8.043-4.827-14.478-4.827h-83.658v-56.308h93.309c6.434 0 11.263-1.609 14.478-4.827s4.827-6.434 4.827-11.263c0-4.827-1.609-8.043-4.827-11.263-3.219-3.219-8.043-4.827-14.478-4.827h-109.398c-8.043 0-14.478 1.609-19.305 6.434-3.219 3.219-6.434 9.653-6.434 19.305v149.619c0 6.434 1.609 11.263 3.219 14.478s4.827 6.434 8.043 8.043c3.219 1.609 8.043 3.219 14.478 3.219h106.181c6.434 0 11.263-1.609 14.478-4.827s4.827-6.434 4.827-11.263c0-4.827-1.609-8.043-4.827-11.263-3.219-3.219-8.043-4.827-14.478-4.827h-90.094zM522.612 536.836l77.222-117.441v119.053c0 8.043 1.609 12.87 4.827 17.696 3.219 3.219 8.043 6.434 12.87 6.434 6.434 0 9.653-1.609 14.478-6.434 3.219-3.219 4.827-9.653 4.827-17.696v-157.662c0-17.696-8.043-25.741-20.914-25.741-3.219 0-6.434 0-9.653 1.609-3.219 1.609-4.827 3.219-8.043 4.827-3.219 1.609-4.827 4.827-6.434 8.043s-4.827 6.434-6.434 9.653l-75.615 115.833v-117.441c0-8.043-1.609-12.87-4.827-17.696-3.219-3.219-8.043-6.434-12.87-6.434-6.434 0-9.653 1.609-14.478 6.434-3.219 3.219-4.827 9.653-4.827 17.696v154.447c0 6.434 0 11.263 1.609 16.090s4.827 8.043 8.043 9.653c3.219 3.219 8.043 3.219 12.87 3.219 3.219 0 6.434 0 9.653-1.609 3.219-1.609 4.827-3.219 6.434-4.827 1.609-1.609 3.219-4.827 6.434-8.043 0-3.219 1.609-6.434 4.827-9.653zM392.297 379.173v157.662c0 8.043 1.609 14.478 4.827 17.696 3.219 4.827 8.043 6.434 14.478 6.434s11.263-1.609 14.478-6.434c3.219-4.827 4.827-9.653 4.827-17.696v-157.662c0-8.043-1.609-14.478-4.827-19.305s-8.043-6.434-14.478-6.434-11.263 1.609-14.478 6.434c-3.219 4.827-4.827 11.263-4.827 19.305zM278.076 536.836v-144.794h82.049c6.434 0 11.263-1.609 14.478-4.827s4.827-6.434 4.827-11.263c0-4.827-1.609-9.653-4.827-11.263-3.219-3.219-8.043-4.827-14.478-4.827h-96.527c-8.043 0-14.478 1.609-19.305 6.434-3.219 3.219-6.434 9.653-6.434 19.305v152.836c0 8.043 1.609 14.478 4.827 17.696 3.219 4.827 8.043 6.434 14.478 6.434s11.263-1.609 14.478-6.434c4.827-4.827 6.434-11.263 6.434-19.305zM487.216 100.851s8.043-19.305 1.609-56.308c-3.219-19.305-19.305-37.003-17.696-49.872s19.305-22.523 27.348-19.305c197.884 93.309 353.935 242.926 360.372 249.363 67.569 62.742 107.79 146.399 107.79 236.493 0 199.489-199.489 361.979-444.029 361.979-246.146 0-444.029-162.49-444.029-361.979 0-189.836 180.186-345.891 408.635-360.372z"  horiz-adv-x="1024" />

    
    <glyph glyph-name="facebook" unicode="&#59173;" d="M699.49999971 759.00000029v-150.00000029h-74.99999971c-25.875 0-37.50000029-30.375-37.50000029-56.25V458.99999971h112.5v-149.99999942h-112.5v-300.00000058h-149.99999942v300.00000058H324.50000029v149.99999942h112.5V609a150.00000029 150.00000029 0 0 0 149.99999942 150.00000029h112.5z"  horiz-adv-x="1024" />

    
    <glyph glyph-name="twitter" unicode="&#59650;" d="M958.293333 640c-32.853333-14.933333-68.266667-24.746667-104.96-29.44 37.546667 22.613333 66.56 58.453333 80.213334 101.546667-35.413333-21.333333-74.666667-36.266667-116.053334-44.8C783.786667 704 736.426667 725.333333 682.666667 725.333333c-100.266667 0-182.186667-81.92-182.186667-183.04 0-14.506667 1.706667-28.586667 4.693333-41.813333C353.28 508.16 218.026667 581.12 128 691.626667c-15.786667-26.88-24.746667-58.453333-24.746667-91.733334 0-63.573333 32-119.893333 81.493334-151.893333-30.293333 0-58.453333 8.533333-83.2 21.333333v-1.28c0-88.746667 63.146667-162.986667 146.773333-179.626666a180.053333 180.053333 0 0 0-82.346667-2.986667 182.613333 182.613333 0 0 1 170.666667-127.146667 363.562667 363.562667 0 0 0-227.413333-78.506666c-14.506667 0-29.013333 0.853333-43.52 2.56C146.773333 30.293333 243.2 0 346.453333 0 682.666667 0 867.413333 279.04 867.413333 520.96c0 8.106667 0 15.786667-0.426666 23.893333 35.84 25.6 66.56 58.026667 91.306666 95.146667z"  horiz-adv-x="1024" />

    
    <glyph glyph-name="instagram" unicode="&#59072;" d="M658.247863 384c0 80.566857-65.718857 146.285714-146.285714 146.285714s-146.285714-65.718857-146.285715-146.285714 65.718857-146.285714 146.285715-146.285714 146.285714 65.718857 146.285714 146.285714z m78.848 0c0-124.562286-100.571429-225.133714-225.133714-225.133714S286.828434 259.437714 286.828434 384 387.399863 609.133714 511.962149 609.133714s225.133714-100.571429 225.133714-225.133714z m61.732571 234.276571c0-29.147429-23.442286-52.553143-52.553143-52.553142S693.722149 589.165714 693.722149 618.276571s23.442286 52.553143 52.553142 52.553143 52.553143-23.442286 52.553143-52.553143zM511.962149 744.009143c-64 0-201.142857 5.156571-258.852572-17.700572-20.004571-8.009143-34.852571-17.700571-50.285714-33.133714s-25.161143-30.281143-33.133714-50.285714c-22.857143-57.709714-17.700571-194.852571-17.700572-258.852572s-5.156571-201.142857 17.700572-258.852571c8.009143-20.004571 17.700571-34.852571 33.133714-50.285714s30.281143-25.161143 50.285714-33.133715c57.709714-22.857143 194.852571-17.700571 258.852572-17.700571s201.142857-5.156571 258.852571 17.700571c20.004571 8.009143 34.852571 17.700571 50.285714 33.133715s25.161143 30.281143 33.133715 50.285714c22.857143 57.709714 17.700571 194.852571 17.700571 258.852571s5.156571 201.142857-17.700571 258.852572c-8.009143 20.004571-17.700571 34.852571-33.133715 50.285714s-30.281143 25.161143-50.285714 33.133714C713.105006 749.165714 575.962149 744.009143 511.962149 744.009143zM950.819291 384c0-60.562286 0.585143-120.576-2.852571-181.138286-3.437714-70.290286-19.419429-132.571429-70.838857-183.990857s-113.700571-67.437714-183.990857-70.838857c-60.562286-3.437714-120.576-2.852571-181.138286-2.852571s-120.576-0.585143-181.138286 2.852571c-70.290286 3.437714-132.571429 19.419429-183.990857 70.838857S79.431863 132.571429 76.03072 202.861714C72.593006 263.424 73.178149 323.437714 73.178149 384s-0.585143 120.576 2.852571 181.138286c3.437714 70.290286 19.419429 132.571429 70.838857 183.990857s113.700571 67.437714 183.990857 70.838857c60.562286 3.437714 120.576 2.852571 181.138286 2.852571s120.576 0.585143 181.138286-2.852571c70.290286-3.437714 132.571429-19.419429 183.990857-70.838857s67.437714-113.700571 70.838857-183.990857C951.404434 504.576 950.819291 444.562286 950.819291 384z"  horiz-adv-x="1024" />

    


  </font>
</defs>
</svg>
