<?xml version="1.0" standalone="no"?>
<!DOCTYPE svg PUBLIC "-//W3C//DTD SVG 1.1//EN" "http://www.w3.org/Graphics/SVG/1.1/DTD/svg11.dtd" >
<svg xmlns="http://www.w3.org/2000/svg">
<metadata>
Created by FontForge Q2wB39 20120731 at Fri Nov 18 13:25:10 2016
 By admin
</metadata>
<defs>
<font id="iconfont" horiz-adv-x="1024" >
  <font-face 
    font-family="iconfont"
    font-weight="500"
    font-stretch="normal"
    units-per-em="1024"
    panose-1="2 0 6 3 0 0 0 0 0 0"
    ascent="896"
    descent="-128"
    x-height="792"
    bbox="20 -161 1004 867"
    underline-thickness="0"
    underline-position="0"
    unicode-range="U+0078-E615"
  />
<missing-glyph 
 />
    <glyph glyph-name=".notdef" 
 />
    <glyph glyph-name=".notdef" 
 />
    <glyph glyph-name=".null" horiz-adv-x="0" 
 />
    <glyph glyph-name="nonmarkingreturn" horiz-adv-x="341" 
 />
    <glyph glyph-name="x" unicode="x" horiz-adv-x="1001" 
d="M281 543q-27 -1 -53 -1h-83q-18 0 -36.5 -6t-32.5 -18.5t-23 -32t-9 -45.5v-76h912v41q0 16 -0.5 30t-0.5 18q0 13 -5 29t-17 29.5t-31.5 22.5t-49.5 9h-133v-97h-438v97zM955 310v-52q0 -23 0.5 -52t0.5 -58t-10.5 -47.5t-26 -30t-33 -16t-31.5 -4.5q-14 -1 -29.5 -0.5
t-29.5 0.5h-32l-45 128h-439l-44 -128h-29h-34q-20 0 -45 1q-25 0 -41 9.5t-25.5 23t-13.5 29.5t-4 30v167h911zM163 247q-12 0 -21 -8.5t-9 -21.5t9 -21.5t21 -8.5q13 0 22 8.5t9 21.5t-9 21.5t-22 8.5zM316 123q-8 -26 -14 -48q-5 -19 -10.5 -37t-7.5 -25t-3 -15t1 -14.5
t9.5 -10.5t21.5 -4h37h67h81h80h64h36q23 0 34 12t2 38q-5 13 -9.5 30.5t-9.5 34.5q-5 19 -11 39h-368zM336 498v228q0 11 2.5 23t10 21.5t20.5 15.5t34 6h188q31 0 51.5 -14.5t20.5 -52.5v-227h-327z" />
    <glyph glyph-name="sousuo1" unicode="&#xe600;" horiz-adv-x="1000" 
d="M734 156q-14 -19 -33 -37l220 -216l36 34zM812 389q0 -104 -49 -190.5t-133.5 -135t-185.5 -48.5q-105 2 -189.5 52.5t-131.5 135.5t-47 186q0 97 49.5 180.5t134.5 132.5t184 49t184.5 -49.5t134.5 -133t49 -179.5zM442 702q-131 0 -224 -93t-93 -226t93 -226.5
t224 -93.5q86 0 160 43t117.5 116.5t43.5 160.5t-43.5 160.5t-117.5 116t-160 42.5z" />
    <glyph glyph-name="tengxunkongjian" unicode="&#xe607;" 
d="M960 455q0 6 -0.5 6.5t-3.5 0.5h-6h-99h-169l-39 71l-110 210h-19l-100 -210l-39 -71h-169h-142v-5l56 -39l157 -139l-36 -318q0 -8 3.5 -9t18.5 -1l259 159l259 -159q8 0 10.5 1t9.5 9l-49 318l149 127zM305 150l288 235l-268 46h407l-248 -225l258 -56h-437z" />
    <glyph glyph-name="weibo" unicode="&#xe608;" 
d="M743 310q-17 4 -21.5 10.5t-1.5 11.5l4 6q1 2 3.5 6.5t6 17t4.5 25t-4 28t-18 27.5q-31 26 -72 22.5t-77.5 -15.5t-36.5 -14q-10 -3 -17.5 -4.5t-11.5 0t-6 3.5t-1.5 8t1 10t3 13.5t3.5 15.5q0 16 -2.5 30t-12 29.5t-25 23.5t-44 7.5t-66.5 -13.5q-37 -13 -76.5 -39
t-69 -54t-54 -54t-36.5 -43l-13 -17q-22 -30 -37.5 -60.5t-21.5 -52.5t-8.5 -40t-2.5 -27l1 -9q6 -53 31.5 -94.5t61 -67.5t84 -44t93 -26.5t94.5 -12.5q81 -6 168 13.5t162 66.5t106 113q19 39 19 73t-12 55.5t-31 38t-36 24t-30 9.5zM408 -31q-118 -6 -201 46t-83 131
q0 78 82.5 134.5t201.5 61.5q120 6 202.5 -39.5t82.5 -122.5q0 -80 -84 -143t-201 -68zM377 273q-32 -4 -57.5 -15t-39.5 -26t-24 -32.5t-13.5 -33.5t-5 -30t-1 -22l0.5 -8v-5t2.5 -12.5t6 -18t12.5 -18.5t22 -17q71 -35 134 -21t101 64q15 18 20 45.5t-2.5 55.5t-24.5 51.5
t-51.5 35.5t-79.5 7zM337 64.5q-22 -2.5 -37.5 9t-15.5 29.5q0 19 14.5 35t35.5 19q25 2 40.5 -10t15.5 -31t-15.5 -34t-37.5 -17.5zM430.5 144.5q-7.5 -5.5 -15.5 -5t-12 7.5q-5 6 -3 15.5t9 14.5q9 6 17 5t12 -7.5t2 -15.5t-9.5 -14.5zM820 375q9 0 16.5 6t8.5 15v3
q4 36 -1.5 63t-18 42t-28 25t-32 12.5t-30.5 3.5t-23 -1l-9 -1q-10 0 -18 -7.5t-8 -18.5t8 -18.5t18 -7.5q86 19 93 -55q1 -19 -2 -36q0 -10 7.5 -17.5t18.5 -7.5zM801 678q-55 13 -129 -1q-1 0 -2 -1t-2 -1h-1q-12 -4 -19.5 -14t-7.5 -23q0 -15 11 -26.5t26 -11.5
q21 3 34 8q6 1 19.5 2.5t36 -4.5t45 -14.5t46.5 -28.5t40 -47q29 -65 12 -126q-8 -18 -8 -36q0 -15 11 -24.5t27 -9.5t24.5 6t11.5 26v0q20 61 15.5 110.5t-21.5 86.5t-46.5 63.5t-60 42.5t-62.5 23z" />
    <glyph glyph-name="video" unicode="&#xe615;" 
d="M393 737q94 25 196.5 7.5t180.5 -75.5q60 -41 103.5 -101.5t64.5 -129t21 -143t-24 -142.5q-30 -87 -94.5 -157t-149.5 -106q-71 -32 -151.5 -36.5t-155 16.5t-140 67.5t-108.5 111.5q-55 80 -70.5 182.5t11.5 196.5q31 112 117.5 196t198.5 113zM498 709
q-97 -2 -184.5 -51t-143.5 -132.5t-65 -179.5q-11 -79 14 -158t74 -140t121 -102.5t152 -48.5q80 -11 160 15t141.5 77t102 125t45.5 155q9 85 -22 168t-89 144t-139.5 96.5t-166.5 31.5zM387 515q237 -141 352 -214q-55 -34 -172 -104t-176 -108q-4 62 -4.5 134.5
t0.5 156.5t0 135z" />
    <glyph glyph-name="qq" unicode="&#xe609;" 
d="M116 218q-25 -59 -28.5 -108.5t16.5 -59.5q14 -7 34.5 7.5t40.5 45.5q16 -66 76 -116q-31 -12 -48.5 -29t-17.5 -38q0 -33 46 -57t112 -24q58 0 102.5 19.5t53.5 48.5h9h10q9 -29 53 -48.5t103 -19.5q65 0 111 24t46 57q0 21 -17.5 38t-48.5 29q60 50 76 116
q21 -31 41 -45.5t34 -7.5q20 10 16.5 59.5t-28.5 108.5q-20 46 -44.5 78t-45.5 40q1 6 1 12q0 36 -18 64v4q0 17 -7 31q-5 125 -81.5 207t-200.5 82t-200.5 -82t-81.5 -207q-7 -14 -7 -31v-4q-18 -28 -18 -64q0 -6 1 -12q-21 -8 -45.5 -40t-44.5 -78v0z" />
    <glyph glyph-name="renren" unicode="&#xe60a;" 
d="M439 748v-286q0 -149 -74.5 -271t-195.5 -181q-107 127 -107 292q0 110 49.5 206.5t135.5 158.5q87 64 192 81v0zM731 -94q-101 -56 -217 -56t-217 56q82 51 139.5 124t77.5 158q20 -85 78 -158t139 -124v0zM969 302q0 -165 -107 -292q-120 58 -195 181q-74 122 -74 271
v286q105 -18 191 -81t135.5 -159t49.5 -206v0zM969 302z" />
    <glyph glyph-name="douban" unicode="&#xe60b;" 
d="M90 727h845v-95h-845v95zM861 160v373h-698v-373h698zM264 437h497v-181h-497v181zM710 -54q46 71 86 162l-102 37q-40 -109 -92 -199h-177q-44 117 -99 199l-94 -37q58 -87 94 -162h-260v-94h893v94h-26h-62.5h-73h-61.5h-26z" />
    <glyph glyph-name="tengxunweibo" unicode="&#xe60c;" 
d="M285.5 676q-109.5 0 -187.5 -76.5t-78 -184.5q0 -63 30 -119q4 -8 13 -11t18 1q9 5 12 14t-2 17q-24 46 -24 98q0 89 64 152t154 63t154 -63t64 -151.5t-64 -151.5t-154 -63q-25 0 -49 5q-9 2 -17.5 -3t-10.5 -14q-2 -10 3 -18t15 -10q29 -6 59 -6q110 0 187.5 76.5
t77.5 184t-77.5 184t-187 76.5zM239 349q23 -15 50 -15q37 0 62.5 25t25.5 61t-25.5 61.5t-62 25.5t-62.5 -25.5t-26 -61.5q0 -18 8 -34q-32 -34 -60 -74q-50 -74 -81.5 -185.5t-19.5 -245.5q1 -11 8 -23t15 -12h3q8 0 15 14t6 25q-21 225 92 392q40 60 52 72zM777 485
q-29 -2 -57 11q-46 22 -63 69.5t5 92.5q22 46 70 63t94 -5t63 -69.5t-5 -92.5q-6 -13 -14.5 -23.5t2.5 -18.5t19 2q9 12 18 28q26 56 5.5 113.5t-76.5 84t-115 6t-85.5 -76t-5.5 -113t77 -84.5q32 -15 69 -14q5 0 9 4t3.5 9.5t-4.5 9.5t-9 4zM995 384q-119 44 -178 141
q-12 19 -21 42q14 7 20 21q9 18 2 37.5t-25.5 28t-38 2t-28 -25t-1.5 -37.5t25 -28q11 -5 20 -5q10 -25 23 -48q64 -106 193 -152q11 -4 16 6l0.5 0.5l0.5 0.5q4 13 -8 17z" />
    <glyph glyph-name="zan" unicode="&#xe60d;" 
d="M853 -31q0 -38 -26.5 -64.5t-64.5 -26.5h-364v0h-113h-1h-159v501h159q2 0 3 -0.5t3 -0.5h3q65 188 85 233q18 43 37.5 61.5t50.5 24.5q17 4 43 -6.5t52 -35.5t37 -66.5t-2 -100.5q-5 -17 -16 -64h251q35 0 51.5 -25t16.5 -66l-46 -364v0zM262 333h-91v-410l113 1v405
l1 3v0q-2 1 -23 1zM808 379h-285l35 136q12 55 -17 94.5t-52 42.5q-14 1 -35 -9t-33 -37q-13 -30 -92 -248l0.5 -1l0.5 -1v-432l432 -1q19 0 32.5 13.5t13.5 32.5l45 364q0 19 -13 32.5t-32 13.5z" />
    <glyph glyph-name="weixin" unicode="&#xe60e;" 
d="M684 448q14 0 32 -2q-22 99 -115.5 164t-214.5 65q-88 0 -163 -36.5t-119 -100.5t-44 -140q0 -129 131 -221l-33 -98l114 58q84 -17 114 -17q17 0 31 2q-10 33 -10 68q0 107 80.5 182.5t196.5 75.5zM509 536q18 0 29 -11t11 -29.5t-11 -29.5t-29 -11q-20 0 -35 11.5
t-15 29.5q1 17 16 28.5t34 11.5zM280 455q-19 0 -34 11.5t-15 29t15 29t34 11.5t30 -11t11 -29q0 -19 -11 -30t-30 -11zM982 194q0 97 -83 166.5t-194 69.5q-116 0 -197 -69t-81 -167q0 -99 81 -168t197 -69q31 0 98 16l89 -49l-24 82q114 86 114 188zM615 234
q-12 0 -22.5 10.5t-10.5 22.5t10.5 22t22.5 10q17 0 29 -9.5t12 -22.5t-12 -23t-29 -10zM794 234q-12 0 -22 10.5t-10 22.5t10 22t22 10q18 0 29.5 -9.5t11.5 -22.5t-11.5 -23t-29.5 -10z" />
    <glyph glyph-name="qian" unicode="&#xe601;" 
d="M761 637h-93l-105 -193q-42 -79 -52 -105h-2q-27 63 -156 298h-99l184 -316h-151v-69h177v-97h-177v-70h177v-140h87v140h171v70h-171v97h171v69h-146z" />
    <glyph glyph-name="pinglun" unicode="&#xe602;" 
d="M806 103v0q-156 -120 -294 -225q-24 -18 -50.5 -22.5t-44 5.5t-17.5 31v156q-91 0 -168.5 46.5t-122.5 127t-45 175.5t45 175.5t122.5 127.5t168.5 47h224q91 0 168.5 -47t122.5 -127.5t45 -175.5q0 -91 -42 -168.5t-112 -125.5zM610 691h-196q-122 0 -208 -86t-86 -208
t86 -208t208 -86h42v-142q0 -14 7 -20.5t14 -5.5h7l280 210h-3q65 39 104 106t39 146q0 122 -86 208t-208 86v0z" />
    <glyph glyph-name="sanheng" unicode="&#xe605;" 
d="M942 271h-860q-12 0 -20.5 8.5t-8.5 20.5t8.5 20.5t20.5 8.5h860q12 0 20.5 -8.5t8.5 -20.5t-8.5 -20.5t-20.5 -8.5v0zM942 271h-860q-12 0 -20.5 8.5t-8.5 20.5t8.5 20.5t20.5 8.5h860q12 0 20.5 -8.5t8.5 -20.5t-8.5 -20.5t-20.5 -8.5v0zM942 -52h-860q-12 0 -20.5 8.5
t-8.5 21t8.5 21t20.5 8.5h860q12 0 20.5 -8.5t8.5 -21t-8.5 -21t-20.5 -8.5v0zM942 -52h-860q-12 0 -20.5 8.5t-8.5 21t8.5 21t20.5 8.5h860q12 0 20.5 -8.5t8.5 -21t-8.5 -21t-20.5 -8.5v0zM942 593h-860q-12 0 -20.5 8.5t-8.5 21t8.5 21t20.5 8.5h860q12 0 20.5 -8.5
t8.5 -21t-8.5 -21t-20.5 -8.5v0zM942 593h-860q-12 0 -20.5 8.5t-8.5 21t8.5 21t20.5 8.5h860q12 0 20.5 -8.5t8.5 -21t-8.5 -21t-20.5 -8.5v0z" />
    <glyph glyph-name="guanbi" unicode="&#xe606;" 
d="M555 384l299 299q9 9 9 22t-9 21q-9 9 -22 9t-21 -9l-299 -299l-299 299q-9 9 -22 9t-21 -9q-9 -9 -9 -22t9 -21l299 -299l-299 -299q-9 -9 -9 -22t9 -21q9 -9 21.5 -9t21.5 9l299 299l299 -299q9 -9 21.5 -9t21.5 9t9 22t-9 21z" />
    <glyph glyph-name="jiantou-copy" unicode="&#xe610;" 
d="M630 867q9 0 17 -6q9 -7 11 -18.5t-5 -21.5l-297 -418l297 -417q7 -10 5 -21.5t-11.5 -18.5t-21.5 -5t-19 11l-309 435q-12 16 0 33l309 434q9 13 24 13z" />
    <glyph glyph-name="icon1460281299377" unicode="&#xe604;" 
d="M966 122q0 -11 -8.5 -19.5t-20 -8.5t-19.5 9l-402 401l-402 -401q-8 -9 -19.5 -9t-20 8.5t-8.5 20t9 19.5l421 422q8 8 20 8t20 -8l422 -422q8 -8 8 -20v0v0z" />
    <glyph glyph-name="jiantou-copy-copy" unicode="&#xe603;" 
d="M394 -77q-9 0 -17 5q-9 7 -11 19t5 22l297 417l-297 417q-7 10 -5 22t11.5 19t21.5 5t19 -12l309 -434q12 -17 0 -34l-309 -434q-9 -12 -24 -12z" />
  </font>
</defs>
</svg>
